古哥论坛

 找回密码
 注册(分享大片)
查看: 234|回复: 14

[1080P] [头文字D].2005.1080p.BluRay.x265.10bit.DTS.2Audio-SONYHD 国粤语中字/7.27GB

[复制链接]

该用户从未签到

发表于 2024-5-10 22:29:50 | 显示全部楼层 |阅读模式
4K天堂

◎标  题 头文字D
◎译  名 飘移族 / Initial D
◎片  名 頭文字D
◎年  代 2005
◎产  地 中国香港 / 日本
◎类  别 剧情 / 动作
◎语  言 粤语 / 英语
◎上映日期 2005-06-23(中国大陆 / 中国香港) / 2005-06-19(北京首映)
◎IMDb评分 6.3/10 (9261人评价)
◎IMDb链接 https://www.imdb.com/title/tt0439630/
◎豆瓣评分 7.8/10 (393793人评价)
◎豆瓣链接 https://movie.douban.com/subject/1329562/
◎片  长 109分钟
◎导  演 刘伟强 Andrew Lau
      麦兆辉 Alan Mak
      拉尔夫·里埃克曼 Ralph Rieckermann
◎编  剧 庄文强 Felix Chong
      重野秀一 Shigeno Shuuichi
◎演  员 周杰伦 Jay Chou
      陈冠希 Edison Chen
      黄秋生 Anthony Wong Chau-Sang
      铃木杏 Anne Suzuki
      余文乐 Shawn Yue
      钟镇涛 Kenny Bee
      陈小春 Jordan Chan
      津村和幸 Tsumura Kazuyuki
      阿部力 Tsuyoshi Abe
      田中千绘 Chie Tanaka
      刘畊宏 Will Liu
      吉泽明步 Akiho Yoshizawa
      山口胜平 Kappei Yamaguchi
      小西真奈美 Manami Konishi
      胁知弘 Tomohiro Waki
      夏治世 Zhishi Xia
      Kazuo Yashiro Kazuo Yashiro
      平野贵大 Takahiro Hirano

◎简  介
  每天清晨都有一辆AE86在秋名山上漂移,而且速度快得惊人,这辆AE86属于藤原豆腐店。藤原拓海(周杰伦 饰)每天清晨都要帮父亲藤原文太(黄秋生 饰)把自家店里的豆腐送到秋名山上的旅店,但这并不是拓海想做的一件事。拓海还会在阿木(杜文泽 饰)家开的加油站做兼职。中里毅(余文乐 饰)向阿木的车队挑战,当中里毅在秋名山练习的时候,竟然被一辆AE86轻易爬过头,中里毅决定打听这辆AE86的消息,要跟他比赛一番。
##### MediaInfo ######
General
Unique ID : 86563797318053531055968897066303539759 (0x411F94B82FDFA76E4787FA47164CCA2F)
Complete name : Initial.D.2005.Repack.1080p.BluRay.x265.10bit.DTS.2Audio-SONYHD.mkv
Duration : 1 h 49 min
Overall bit rate : 9 543 kb/s

Video
ID : 1
Format : HEVC
Format/Info : High Efficiency Video Coding
Format profile : Main 10@L4@Main
Codec ID : V_MPEGH/ISO/HEVC
Duration : 1 h 49 min
Bit rate : 8 048 kb/s
Width : 1 920 pixels
Height : 816 pixels
Display aspect ratio : 2.35:1
Frame rate mode : Constant
Frame rate : 23.976 (24000/1001) FPS
Color space : YUV
Chroma subsampling : 4:2:0
Bit depth : 10 bits
Bits/(Pixel*Frame) : 0.214
Stream size : 6.13 GiB (84%)
Writing library : x265 3.5g2b25c9ba0+45:[Windows][GCC 10.2.0][64 bit] Yuuki 10bit+8bit+12bit
Encoding settings : rc=crf / crf=16.5600 / qcomp=0.60 / qpstep=4 / stats-write=0 / stats-read=0 / no-lossless / no-cu-lossless / aq-mode=3 / aq-strength=0.90 / cbqpoffs=0 / crqpoffs=0 / ipratio=1.40 / pbratio=1.30 / psy-rd=2.00 / psy-rdoq=0.00 / deblock=0:0 / ref=6 / limit-refs=1 / no-limit-modes / bframes=8 / b-adapt=2 / bframe-bias=0 / b-pyramid / b-intra / weightp / weightb / min-keyint=24 / max-keyint=240 / rc-lookahead=24 / gop-lookahead=0 / scenecut=40 / hist-scenecut=0 / radl=0 / max-cu-size=64 / min-cu-size=8 / me=3 / subme=7 / merange=48 / rdoq-level=0 / rd=4 / rdpenalty=0 / dynamic-rd=0.00 / no-rd-refine / ----- / cutree / sao / no-rect / no-amp / no-open-gop / wpp / no-pmode / no-pme / no-psnr / no-ssim / nr-intra=0 / nr-inter=0 / no-constrained-intra / no-strong-intra-smoothing / max-tu-size=32 / tu-inter-depth=1 / tu-intra-depth=1 / limit-tu=0 / qg-size=32 / qpmax=69 / qpmin=0 / ----- / cpuid=1111039 / frame-threads=4 / numa-pools=+ / log-level=2 / input-csp=1 / input-res=1920x816 / interlace=0 / level-idc=0 / high-tier=1 / uhd-bd=0 / no-allow-non-conformance / repeat-headers / aud / no-hrd / info / hash=0 / no-temporal-layers / lookahead-slices=0 / no-splice / no-intra-refresh / no-ssim-rd / signhide / no-tskip / max-merge=3 / temporal-mvp / no-frame-dup / no-hme / no-analyze-src-pics / no-sao-non-deblock / selective-sao=4 / early-skip / rskip / no-fast-intra / no-tskip-fast / no-splitrd-skip / zone-count=0 / no-strict-cbr / no-rc-grain / no-const-vbv / sar=0 / overscan=0 / videoformat=5 / range=0 / colorprim=2 / transfer=2 / colormatrix=2 / chromaloc=0 / display-window=0 / cll=0,0 / min-luma=0 / max-luma=1023 / log2-max-poc-lsb=8 / vui-timing-info / vui-hrd-info / slices=1 / no-opt-qp-pps / no-opt-ref-list-length-pps / no-multi-pass-opt-rps / scenecut-bias=0.05 / hist-threshold=0.03 / no-opt-cu-delta-qp / no-aq-motion / no-hdr10 / no-hdr10-opt / no-dhdr10-opt / no-idr-recovery-sei / analysis-reuse-level=0 / analysis-save-reuse-level=0 / analysis-load-reuse-level=0 / scale-factor=0 / refine-intra=0 / refine-inter=0 / refine-mv=1 / refine-ctu-distortion=0 / no-limit-sao / ctu-info=0 / no-lowpass-dct / refine-analysis-type=0 / copy-pic=1 / max-ausize-factor=1.0 / no-dynamic-refine / no-single-sei / no-hevc-aq / no-svt / no-field / qp-adaptation-range=1.00 / scenecut-aware-qp=0conformance-window-offsets / right=0 / bottom=0 / decoder-max-rate=0 / no-vbv-live-multi-pass
Default : Yes
Forced : No

Audio #1
ID : 2
ID in the original source medium : 4352 (0x1100)
Format : DTS
Format/Info : Digital Theater Systems
Codec ID : A_DTS
Duration : 1 h 49 min
Bit rate mode : Constant
Bit rate : 768 kb/s
Channel(s) : 6 channels
Channel layout : C L R Ls Rs LFE
Sampling rate : 48.0 kHz
Frame rate : 93.750 FPS (512 SPF)
Bit depth : 24 bits
Compression mode : Lossy
Stream size : 599 MiB (8%)
Title : Cantonese
Language : Chinese
Default : Yes
Forced : No
Original source medium : Blu-ray

Audio #2
ID : 3
ID in the original source medium : 4354 (0x1102)
Format : AC-3
Format/Info : Audio Coding 3
Commercial name : Dolby Digital
Codec ID : A_AC3
Duration : 1 h 48 min
Bit rate mode : Constant
Bit rate : 640 kb/s
Channel(s) : 6 channels
Channel layout : L R C LFE Ls Rs
Sampling rate : 48.0 kHz
Frame rate : 31.250 FPS (1536 SPF)
Compression mode : Lossy
Stream size : 499 MiB (7%)
Title : Mandarin
Language : Chinese
Service kind : Complete Main
Default : No
Forced : No
Original source medium : Blu-ray

Text #1
ID : 4
ID in the original source medium : 4609 (0x1201)
Format : PGS
Muxing mode : zlib
Codec ID : S_HDMV/PGS
Codec ID/Info : Picture based subtitle format used on BDs/HD-DVDs
Duration : 1 h 48 min
Bit rate : 38.8 kb/s
Frame rate : 0.299 FPS
Count of elements : 1944
Stream size : 30.1 MiB (0%)
Title : chs&eng
Language : Chinese
Default : Yes
Forced : No
Original source medium : Blu-ray

Text #2
ID : 5
ID in the original source medium : 4610 (0x1202)
Format : PGS
Muxing mode : zlib
Codec ID : S_HDMV/PGS
Codec ID/Info : Picture based subtitle format used on BDs/HD-DVDs
Duration : 1 h 48 min
Bit rate : 39.0 kb/s
Frame rate : 0.299 FPS
Count of elements : 1944
Stream size : 30.2 MiB (0%)
Title : cht&eng
Language : Chinese
Default : No
Forced : No
Original source medium : Blu-ray

Text #3
ID : 6
ID in the original source medium : 4611 (0x1203)
Format : PGS
Muxing mode : zlib
Codec ID : S_HDMV/PGS
Codec ID/Info : Picture based subtitle format used on BDs/HD-DVDs
Duration : 1 h 48 min
Bit rate : 24.0 kb/s
Frame rate : 0.299 FPS
Count of elements : 1944
Stream size : 18.6 MiB (0%)
Title : chs
Language : Chinese
Default : No
Forced : No
Original source medium : Blu-ray

Text #4
ID : 7
ID in the original source medium : 4612 (0x1204)
Format : PGS
Muxing mode : zlib
Codec ID : S_HDMV/PGS
Codec ID/Info : Picture based subtitle format used on BDs/HD-DVDs
Duration : 1 h 48 min
Bit rate : 24.2 kb/s
Frame rate : 0.299 FPS
Count of elements : 1944
Stream size : 18.8 MiB (0%)
Title : cht
Language : Chinese
Default : No
Forced : No
Original source medium : Blu-ray

Text #5
ID : 8
ID in the original source medium : 4613 (0x1205)
Format : PGS
Muxing mode : zlib
Codec ID : S_HDMV/PGS
Codec ID/Info : Picture based subtitle format used on BDs/HD-DVDs
Duration : 1 h 48 min
Bit rate : 25.0 kb/s
Frame rate : 0.405 FPS
Count of elements : 2630
Stream size : 19.4 MiB (0%)
Title : Mandarin chs
Language : Chinese
Default : No
Forced : No
Original source medium : Blu-ray

Text #6
ID : 9
ID in the original source medium : 4614 (0x1206)
Format : PGS
Muxing mode : zlib
Codec ID : S_HDMV/PGS
Codec ID/Info : Picture based subtitle format used on BDs/HD-DVDs
Duration : 1 h 48 min
Bit rate : 25.2 kb/s
Frame rate : 0.405 FPS
Count of elements : 2630
Stream size : 19.5 MiB (0%)
Title : Mandarin cht
Language : Chinese
Default : No
Forced : No
Original source medium : Blu-ray

Menu
00:00:00.000 : en:Chapter 01
00:04:48.621 : en:Chapter 02
00:13:00.988 : en:Chapter 03
00:19:38.510 : en:Chapter 04
00:31:19.043 : en:Chapter 05
00:44:10.689 : en:Chapter 06
00:49:55.283 : en:Chapter 07
00:55:37.542 : en:Chapter 08
01:07:54.695 : en:Chapter 09
01:15:05.334 : en:Chapter 10
01:21:03.859 : en:Chapter 11
01:24:24.142 : en:Chapter 12
01:32:03.684 : en:Chapter 13
01:39:11.946 : en:Chapter 14

部分资源为软字幕,移动端推荐播放器:MxPlayer,nPlayer,infuse ,其他播放器请自行尝试。
部分资源为软字幕,电脑端推荐播放器:PotPlayer,完美解码,KMPLAYER,其他播放器请自行尝试。
下载端推荐纯BT下载软件:qBittorrent,Bitcomet,uTorrent ,其他下载软件请自行尝试。不支持吸血迅雷。
游客,如果您要查看本帖隐藏内容请回复开通VIP会员可免回复、不扣积分下载种子附件,点击开通VIP会员
古哥影视论坛 www.guge09.com 高清电影,蓝光电影,最新电影,电影天堂,影视帝国,人人影视
  • TA的每日心情
    开心
    3 天前
  • 签到天数: 56 天

    [LV.5]常住居民I

    发表于 2024-5-10 23:05:33 | 显示全部楼层
    沙发,感谢楼主的经典分享了
    古哥影视论坛 www.guge09.com 高清电影,蓝光电影,最新电影,电影天堂,影视帝国,人人影视

    该用户从未签到

    发表于 2024-5-10 23:11:07 | 显示全部楼层
    老电影,一直没看过,感谢感谢
    古哥影视论坛 www.guge09.com 高清电影,蓝光电影,最新电影,电影天堂,影视帝国,人人影视

    该用户从未签到

    发表于 2024-5-11 01:39:32 | 显示全部楼层
    谢谢楼主分享!
    古哥影视论坛 www.guge09.com 高清电影,蓝光电影,最新电影,电影天堂,影视帝国,人人影视
  • TA的每日心情
    开心
    10 小时前
  • 签到天数: 25 天

    [LV.4]偶尔看看III

    发表于 2024-5-11 10:52:09 | 显示全部楼层
    感谢楼主的经典分享了
    古哥影视论坛 www.guge09.com 高清电影,蓝光电影,最新电影,电影天堂,影视帝国,人人影视
  • TA的每日心情
    开心
    4 天前
  • 签到天数: 273 天

    [LV.8]以坛为家I

    发表于 2024-5-11 11:02:02 | 显示全部楼层
    谢谢分享;
    古哥影视论坛 www.guge09.com 高清电影,蓝光电影,最新电影,电影天堂,影视帝国,人人影视
  • TA的每日心情
    开心
    10 小时前
  • 签到天数: 1094 天

    [LV.10]以坛为家III

    发表于 2024-5-11 12:33:53 | 显示全部楼层
    多年前看过,下来重温
    古哥影视论坛 www.guge09.com 高清电影,蓝光电影,最新电影,电影天堂,影视帝国,人人影视
  • TA的每日心情
    无聊
    2023-8-9 20:54
  • 签到天数: 2 天

    [LV.1]初来乍到

    发表于 2024-5-11 13:34:08 | 显示全部楼层

    感谢楼主分享
    古哥影视论坛 www.guge09.com 高清电影,蓝光电影,最新电影,电影天堂,影视帝国,人人影视
  • TA的每日心情
    无聊
    15 小时前
  • 签到天数: 530 天

    [LV.9]以坛为家II

    发表于 2024-5-11 19:59:32 来自手机 | 显示全部楼层
    经典电影了
    古哥影视论坛 www.guge09.com 高清电影,蓝光电影,最新电影,电影天堂,影视帝国,人人影视
  • TA的每日心情
    郁闷
    2023-12-18 10:22
  • 签到天数: 1 天

    [LV.1]初来乍到

    发表于 2024-5-11 20:32:56 | 显示全部楼层
    感谢楼主的经典分享了
    古哥影视论坛 www.guge09.com 高清电影,蓝光电影,最新电影,电影天堂,影视帝国,人人影视
  • TA的每日心情
    奋斗
    2022-1-18 21:33
  • 签到天数: 2 天

    [LV.1]初来乍到

    发表于 2024-5-11 23:33:57 | 显示全部楼层
    感谢楼主分享!
    古哥影视论坛 www.guge09.com 高清电影,蓝光电影,最新电影,电影天堂,影视帝国,人人影视
  • TA的每日心情
    擦汗
    2022-3-20 13:12
  • 签到天数: 1 天

    [LV.1]初来乍到

    发表于 2024-5-11 23:49:47 | 显示全部楼层

    沙发,感谢楼主的经典分享了
    古哥影视论坛 www.guge09.com 高清电影,蓝光电影,最新电影,电影天堂,影视帝国,人人影视
  • TA的每日心情
    擦汗
    2024-2-13 16:04
  • 签到天数: 1 天

    [LV.1]初来乍到

    发表于 2024-5-12 14:39:43 | 显示全部楼层
    竟然已经快二十年了
    古哥影视论坛 www.guge09.com 高清电影,蓝光电影,最新电影,电影天堂,影视帝国,人人影视
  • TA的每日心情
    无聊
    2024-4-19 16:04
  • 签到天数: 2 天

    [LV.1]初来乍到

    发表于 7 天前 | 显示全部楼层
    就漫改电影来说,其实这部还不错
    古哥影视论坛 www.guge09.com 高清电影,蓝光电影,最新电影,电影天堂,影视帝国,人人影视
    您需要登录后才可以回帖 登录 | 注册(分享大片)

    本版积分规则

    免责声明
    本站提供网上学习交流和自由讨论使用,所有资源均来自互联网公开渠道,发布和个人言论并不代表本站立场,本站不负任何责任.
    如发现有侵权行为,请与我们联系.我们将立刻从网站上删除,并向所有持版权者致最深歉意.
    已经安全运行

    QQ|小黑屋|手机版|Archiver|古哥论坛

    GMT+8, 2024-5-21 21:45 , Processed in 0.284979 second(s), 29 queries , Gzip On.

    Powered by Discuz! X3.4

    Copyright © 2001-2021, Tencent Cloud.

    快速回复 返回顶部 返回列表