古哥论坛

 找回密码
 注册(分享大片)
查看: 397|回复: 21

[1080P] [创:战纪].Tron.Legacy.2010.DC.1080p.BluRay.x265.10bit.DTS-SONYHD 中英字幕/8.07GB

[复制链接]

该用户从未签到

发表于 2024-5-10 22:54:51 | 显示全部楼层 |阅读模式
4K天堂

◎标  题 创:战纪
◎译  名 创:光速战记(台) / 电子世界争霸战2 / Tron 2 / TR2N / 创战纪
◎片  名 TRON: Legacy
◎年  代 2010
◎产  地 美国
◎类  别 动作 / 科幻 / 冒险
◎语  言 英语
◎上映日期 2011-01-10(中国大陆) / 2010-12-17(美国)
◎IMDb评分 6.8/10 (342697人评价)
◎IMDb链接 https://www.imdb.com/title/tt1104001/
◎豆瓣评分 6.7/10 (105160人评价)
◎豆瓣链接 https://movie.douban.com/subject/2997134/
◎片  长 125分钟
◎导  演 约瑟夫·科辛斯基 Joseph Kosinski
◎编  剧 亚当·霍罗威茨 Adam Horowitz
      布赖恩·克卢格曼 Brian Klugman
      爱德华·基齐斯 Edward Kitsis
      李·施特恩塔尔 Lee Sternthal
      史蒂文·利斯伯吉尔 Steven Lisberger
      邦尼·麦克伯德 Bonnie MacBird
◎演  员 加内特·赫德兰 Garrett Hedlund
      奥利维亚·王尔德 Olivia Wilde
      杰夫·布里吉斯 Jeff Bridges
      布鲁斯·巴克林纳 Bruce Boxleitner
      詹姆斯·弗莱恩 James Frain
      碧儿·加勒特 Beau Garrett
      麦克·辛 Michael Sheen
      阿尼斯·舍尔法 Anis Cheurfa
      赛琳达·斯万 Serinda Swan
      亚雅·达科斯塔 Yaya DaCosta
      伊丽莎白·马西斯 Elizabeth Mathis
      基里安·墨菲 Cillian Murphy
      杰弗里·诺灵 Jeffrey Nordling
      迈克尔·泰根 Michael Teigen
      史蒂文·利斯伯吉尔 Steven Lisberger
      帕特里克·萨邦圭 Patrick Sabongui
      Owen Best Owen Best
      艾米·伊斯特尔 Amy Esterle
      蠢朋克 Daft Punk
      康拉德·科茨 Conrad Coates

◎简  介
  20世纪80年代,电子软体天才凯文·弗林(杰夫·布里吉斯 Jeff Bridges 饰)创建了英康公司,将人类带入一个全新的时代。可是在辉煌的时代开创不久后,凯文神秘失踪。在此之后,凯文年幼的儿子萨姆(加内特·赫德兰 Garrett Hedlund 饰)继承了父亲的位置,实际工作则由其他工作人员主持。萨姆天资聪颖,充满冒险精神,经常给英康的高层们惹来麻烦。这一天,他得知一间荒废已久的工作室内竟传来父亲的讯息。萨姆前去探查,结果竟进入一个全数字化的虚拟世界。这个世界的掌控者克鲁(杰夫·布里吉斯 Jeff Bridges 饰)与父亲有着同样的容貌,却野心勃勃,邪恶无比。萨姆被迫卷入一场充满阴谋的电子争霸战中……

  本片荣获2010年奥斯汀影评人协会最佳原创配乐奖。
##### MediaInfo ######
General
Unique ID : 64596114606570607336446266027812206908 (0x3098C25713A8A73C5579CB6B39B2393C)
Complete name : Tron.Legacy.2010.DC.1080p.BluRay.x265.10bit.DTS-SONYHD.mkv
Duration : 2 h 5 min
Overall bit rate : 9 226 kb/s

Video
ID : 1
Format : HEVC
Format/Info : High Efficiency Video Coding
Format profile : Main 10@L4@Main
Codec ID : V_MPEGH/ISO/HEVC
Duration : 2 h 5 min
Bit rate : 7 665 kb/s
Width : 1 920 pixels
Height : 816 pixels
Display aspect ratio : 2.35:1
Frame rate mode : Constant
Frame rate : 23.976 (24000/1001) FPS
Color space : YUV
Chroma subsampling : 4:2:0
Bit depth : 10 bits
Bits/(Pixel*Frame) : 0.204
Stream size : 6.70 GiB (83%)
Writing library : x265 3.5g2b25c9ba0+45:[Windows][GCC 10.2.0][64 bit] Yuuki 10bit+8bit+12bit
Encoding settings : rc=crf / crf=17.5000 / qcomp=0.60 / qpstep=4 / stats-write=0 / stats-read=0 / no-lossless / no-cu-lossless / aq-mode=3 / aq-strength=0.90 / cbqpoffs=0 / crqpoffs=0 / ipratio=1.40 / pbratio=1.30 / psy-rd=2.00 / psy-rdoq=0.00 / deblock=0:0 / ref=6 / limit-refs=1 / no-limit-modes / bframes=8 / b-adapt=2 / bframe-bias=0 / b-pyramid / b-intra / weightp / weightb / min-keyint=24 / max-keyint=240 / rc-lookahead=24 / gop-lookahead=0 / scenecut=40 / hist-scenecut=0 / radl=0 / max-cu-size=64 / min-cu-size=8 / me=3 / subme=7 / merange=48 / rdoq-level=0 / rd=4 / rdpenalty=0 / dynamic-rd=0.00 / no-rd-refine / ----- / cutree / sao / no-rect / no-amp / no-open-gop / wpp / no-pmode / no-pme / no-psnr / no-ssim / nr-intra=0 / nr-inter=0 / no-constrained-intra / no-strong-intra-smoothing / max-tu-size=32 / tu-inter-depth=1 / tu-intra-depth=1 / limit-tu=0 / qg-size=32 / qpmax=69 / qpmin=0 / ----- / cpuid=1111039 / frame-threads=4 / numa-pools=+ / log-level=2 / input-csp=1 / input-res=1920x816 / interlace=0 / level-idc=0 / high-tier=1 / uhd-bd=0 / no-allow-non-conformance / no-repeat-headers / aud / no-hrd / info / hash=0 / no-temporal-layers / lookahead-slices=0 / no-splice / no-intra-refresh / no-ssim-rd / signhide / no-tskip / max-merge=3 / temporal-mvp / no-frame-dup / no-hme / no-analyze-src-pics / no-sao-non-deblock / selective-sao=4 / early-skip / rskip / no-fast-intra / no-tskip-fast / no-splitrd-skip / zone-count=0 / no-strict-cbr / no-rc-grain / no-const-vbv / sar=0 / overscan=0 / videoformat=5 / range=0 / colorprim=2 / transfer=2 / colormatrix=2 / chromaloc=0 / display-window=0 / cll=0,0 / min-luma=0 / max-luma=1023 / log2-max-poc-lsb=8 / vui-timing-info / vui-hrd-info / slices=1 / no-opt-qp-pps / no-opt-ref-list-length-pps / no-multi-pass-opt-rps / scenecut-bias=0.05 / hist-threshold=0.03 / no-opt-cu-delta-qp / no-aq-motion / no-hdr10 / no-hdr10-opt / no-dhdr10-opt / no-idr-recovery-sei / analysis-reuse-level=0 / analysis-save-reuse-level=0 / analysis-load-reuse-level=0 / scale-factor=0 / refine-intra=0 / refine-inter=0 / refine-mv=1 / refine-ctu-distortion=0 / no-limit-sao / ctu-info=0 / no-lowpass-dct / refine-analysis-type=0 / copy-pic=1 / max-ausize-factor=1.0 / no-dynamic-refine / no-single-sei / no-hevc-aq / no-svt / no-field / qp-adaptation-range=1.00 / scenecut-aware-qp=0conformance-window-offsets / right=0 / bottom=0 / decoder-max-rate=0 / no-vbv-live-multi-pass
Default : Yes
Forced : No

Audio
ID : 2
ID in the original source medium : 4352 (0x1100)
Format : DTS
Format/Info : Digital Theater Systems
Codec ID : A_DTS
Duration : 2 h 5 min
Bit rate mode : Constant
Bit rate : 1 509 kb/s
Channel(s) : 6 channels
Channel layout : C L R Ls Rs LFE
Sampling rate : 48.0 kHz
Frame rate : 93.750 FPS (512 SPF)
Bit depth : 24 bits
Compression mode : Lossy
Stream size : 1.32 GiB (16%)
Title : English
Language : English
Default : Yes
Forced : No
Original source medium : Blu-ray

Text #1
ID : 3
ID in the original source medium : 4613 (0x1205)
Format : PGS
Muxing mode : zlib
Codec ID : S_HDMV/PGS
Codec ID/Info : Picture based subtitle format used on BDs/HD-DVDs
Duration : 1 h 56 min
Bit rate : 30.6 kb/s
Frame rate : 0.285 FPS
Count of elements : 2002
Stream size : 25.6 MiB (0%)
Title : chs&eng
Language : Chinese
Default : Yes
Forced : No
Original source medium : Blu-ray

Text #2
ID : 4
ID in the original source medium : 4614 (0x1206)
Format : PGS
Muxing mode : zlib
Codec ID : S_HDMV/PGS
Codec ID/Info : Picture based subtitle format used on BDs/HD-DVDs
Duration : 1 h 56 min
Bit rate : 30.8 kb/s
Frame rate : 0.285 FPS
Count of elements : 2002
Stream size : 25.8 MiB (0%)
Title : cht&eng
Language : Chinese
Default : No
Forced : No
Original source medium : Blu-ray

Text #3
ID : 5
ID in the original source medium : 4615 (0x1207)
Format : PGS
Muxing mode : zlib
Codec ID : S_HDMV/PGS
Codec ID/Info : Picture based subtitle format used on BDs/HD-DVDs
Duration : 1 h 56 min
Bit rate : 17.3 kb/s
Frame rate : 0.285 FPS
Count of elements : 2000
Stream size : 14.4 MiB (0%)
Title : chs
Language : Chinese
Default : No
Forced : No
Original source medium : Blu-ray

Text #4
ID : 6
ID in the original source medium : 4616 (0x1208)
Format : PGS
Muxing mode : zlib
Codec ID : S_HDMV/PGS
Codec ID/Info : Picture based subtitle format used on BDs/HD-DVDs
Duration : 1 h 56 min
Bit rate : 17.5 kb/s
Frame rate : 0.285 FPS
Count of elements : 2000
Stream size : 14.6 MiB (0%)
Title : cht
Language : Chinese
Default : No
Forced : No
Original source medium : Blu-ray

Text #5
ID : 7
ID in the original source medium : 4608 (0x1200)
Format : PGS
Muxing mode : zlib
Codec ID : S_HDMV/PGS
Codec ID/Info : Picture based subtitle format used on BDs/HD-DVDs
Duration : 2 h 4 min
Bit rate : 24.3 kb/s
Frame rate : 0.326 FPS
Count of elements : 2436
Stream size : 21.7 MiB (0%)
Title : eng
Language : English
Default : No
Forced : No
Original source medium : Blu-ray

Menu
00:00:00.000 : en:Chapter 01
00:04:07.163 : en:Chapter 02
00:14:44.133 : en:Chapter 03
00:23:15.602 : en:Chapter 04
00:26:52.694 : en:Chapter 05
00:36:12.210 : en:Chapter 06
00:38:35.980 : en:Chapter 07
00:46:52.726 : en:Chapter 08
00:53:03.763 : en:Chapter 09
01:04:54.181 : en:Chapter 10
01:13:47.421 : en:Chapter 11
01:19:00.944 : en:Chapter 12
01:22:40.455 : en:Chapter 13
01:25:50.895 : en:Chapter 14
01:28:11.828 : en:Chapter 15
01:31:42.412 : en:Chapter 16
01:43:13.061 : en:Chapter 17
01:48:18.033 : en:Chapter 18
01:54:48.381 : en:Chapter 19
01:58:03.659 : en:Chapter 20


部分资源为软字幕,移动端推荐播放器:MxPlayer,nPlayer,infuse ,其他播放器请自行尝试。
部分资源为软字幕,电脑端推荐播放器:PotPlayer,完美解码,KMPLAYER,其他播放器请自行尝试。
下载端推荐纯BT下载软件:qBittorrent,Bitcomet,uTorrent ,其他下载软件请自行尝试。不支持吸血迅雷。
游客,如果您要查看本帖隐藏内容请回复开通VIP会员可免回复、不扣积分下载种子附件,点击开通VIP会员
古哥影视论坛 www.guge09.com 高清电影,蓝光电影,最新电影,电影天堂,影视帝国,人人影视
  • TA的每日心情
    慵懒
    20 小时前
  • 签到天数: 596 天

    [LV.9]以坛为家II

    发表于 2024-5-11 00:08:00 | 显示全部楼层
    印象深刻的是这部电影里的画面,现在据说有第二部了,期待中
    古哥影视论坛 www.guge09.com 高清电影,蓝光电影,最新电影,电影天堂,影视帝国,人人影视

    该用户从未签到

    发表于 2024-5-11 10:14:22 | 显示全部楼层
    看图片看介绍都不错,下载来看看。
    古哥影视论坛 www.guge09.com 高清电影,蓝光电影,最新电影,电影天堂,影视帝国,人人影视

    该用户从未签到

    发表于 2024-5-11 10:35:52 | 显示全部楼层
    很早的虚拟现实题材,谢谢分享!
    古哥影视论坛 www.guge09.com 高清电影,蓝光电影,最新电影,电影天堂,影视帝国,人人影视

    该用户从未签到

    发表于 2024-5-11 14:16:28 | 显示全部楼层
    感谢楼主分享!
    古哥影视论坛 www.guge09.com 高清电影,蓝光电影,最新电影,电影天堂,影视帝国,人人影视
  • TA的每日心情
    开心
    11 小时前
  • 签到天数: 482 天

    [LV.9]以坛为家II

    发表于 2024-5-11 14:33:44 | 显示全部楼层
    感谢楼主分享!
    古哥影视论坛 www.guge09.com 高清电影,蓝光电影,最新电影,电影天堂,影视帝国,人人影视
  • TA的每日心情
    开心
    2024-2-9 10:17
  • 签到天数: 7 天

    [LV.3]偶尔看看II

    发表于 2024-5-11 15:13:38 | 显示全部楼层
    感谢楼主分享
    古哥影视论坛 www.guge09.com 高清电影,蓝光电影,最新电影,电影天堂,影视帝国,人人影视
  • TA的每日心情
    开心
    2023-11-14 09:04
  • 签到天数: 5 天

    [LV.2]偶尔看看I

    发表于 2024-5-11 16:44:41 | 显示全部楼层
    人人影视!雄起!!!!必须支持!下载就完了!冲冲冲!!!
    古哥影视论坛 www.guge09.com 高清电影,蓝光电影,最新电影,电影天堂,影视帝国,人人影视

    该用户从未签到

    发表于 2024-5-11 18:31:22 | 显示全部楼层
    谢谢楼主分享
    古哥影视论坛 www.guge09.com 高清电影,蓝光电影,最新电影,电影天堂,影视帝国,人人影视

    该用户从未签到

    发表于 2024-5-11 19:56:22 | 显示全部楼层
    还可以,看看·····
    古哥影视论坛 www.guge09.com 高清电影,蓝光电影,最新电影,电影天堂,影视帝国,人人影视

    该用户从未签到

    发表于 2024-5-11 21:14:20 | 显示全部楼层
    谢谢楼主分享!
    古哥影视论坛 www.guge09.com 高清电影,蓝光电影,最新电影,电影天堂,影视帝国,人人影视

    该用户从未签到

    发表于 2024-5-11 22:15:26 | 显示全部楼层
    这一部电影好像没有看过
    古哥影视论坛 www.guge09.com 高清电影,蓝光电影,最新电影,电影天堂,影视帝国,人人影视

    该用户从未签到

    发表于 2024-5-11 23:16:40 | 显示全部楼层
    感谢楼主分享!
    古哥影视论坛 www.guge09.com 高清电影,蓝光电影,最新电影,电影天堂,影视帝国,人人影视
  • TA的每日心情
    奋斗
    2022-1-18 21:33
  • 签到天数: 2 天

    [LV.1]初来乍到

    发表于 2024-5-11 23:28:31 | 显示全部楼层
    感谢楼主分享!
    古哥影视论坛 www.guge09.com 高清电影,蓝光电影,最新电影,电影天堂,影视帝国,人人影视
  • TA的每日心情
    开心
    2024-5-13 21:27
  • 签到天数: 1 天

    [LV.1]初来乍到

    发表于 2024-5-12 17:20:38 | 显示全部楼层
    感谢楼主分享好片
    古哥影视论坛 www.guge09.com 高清电影,蓝光电影,最新电影,电影天堂,影视帝国,人人影视
  • TA的每日心情
    开心
    2023-12-25 23:59
  • 签到天数: 14 天

    [LV.3]偶尔看看II

    发表于 2024-5-12 18:19:55 | 显示全部楼层
    虚拟世界美女AI给你当老婆
    古哥影视论坛 www.guge09.com 高清电影,蓝光电影,最新电影,电影天堂,影视帝国,人人影视
  • TA的每日心情
    无聊
    2024-4-19 16:04
  • 签到天数: 2 天

    [LV.1]初来乍到

    发表于 7 天前 | 显示全部楼层
    导剪版是必须要收下的
    古哥影视论坛 www.guge09.com 高清电影,蓝光电影,最新电影,电影天堂,影视帝国,人人影视

    该用户从未签到

    发表于 6 天前 | 显示全部楼层
    谢谢楼主分享,辛苦了
    古哥影视论坛 www.guge09.com 高清电影,蓝光电影,最新电影,电影天堂,影视帝国,人人影视
    您需要登录后才可以回帖 登录 | 注册(分享大片)

    本版积分规则

    免责声明
    本站提供网上学习交流和自由讨论使用,所有资源均来自互联网公开渠道,发布和个人言论并不代表本站立场,本站不负任何责任.
    如发现有侵权行为,请与我们联系.我们将立刻从网站上删除,并向所有持版权者致最深歉意.
    已经安全运行

    QQ|小黑屋|手机版|Archiver|古哥论坛

    GMT+8, 2024-5-21 21:19 , Processed in 0.308830 second(s), 29 queries , Gzip On.

    Powered by Discuz! X3.4

    Copyright © 2001-2021, Tencent Cloud.

    快速回复 返回顶部 返回列表