古哥论坛

 找回密码
 注册(分享大片)
查看: 128|回复: 9

[普罗米修斯].2012.2160p.UHD.BluRay.x265.10bit.HDR.DTS-SONYHD 中英字幕/12.23GB

[复制链接]

该用户从未签到

发表于 7 天前 | 显示全部楼层 |阅读模式
4K天堂

◎标  题 普罗米修斯
◎译  名 异形前传 / 异形前传:普罗米修斯
◎片  名 Prometheus
◎年  代 2012
◎产  地 美国 / 英国
◎类  别 科幻 / 惊悚 / 冒险
◎语  言 英语 / 苏格兰盖尔语
◎上映日期 2012-09-02(中国大陆) / 2012-06-08(美国)
◎IMDb评分 7/10 (617058人评价)
◎IMDb链接 https://www.imdb.com/title/tt1446714/
◎豆瓣评分 7.6/10 (344496人评价)
◎豆瓣链接 https://movie.douban.com/subject/3771562/
◎片  长 124分钟(美国) / 122分钟(中国大陆)
◎导  演 雷德利·斯科特 Ridley Scott
◎编  剧 达蒙·林德洛夫 Damon Lindelof
      乔·斯派茨 Jon Spaihts
      丹·欧班农 Dan O'Bannon
◎演  员 劳米·拉佩斯 Noomi Rapace
      迈克尔·法斯宾德 Michael Fassbender
      查理兹·塞隆 Charlize Theron
      伊德里斯·艾尔巴 Idris Elba
      盖·皮尔斯 Guy Pearce
      罗根·马歇尔-格林 Logan Marshall-Green
      西恩·哈里斯 Sean Harris
      拉菲·斯波 Rafe Spall
      埃蒙·埃利奥特 Emun Elliott
      本尼迪克特·黄 Benedict Wong
      凯特·迪基 Kate Dickie
      帕特里克·威尔森 Patrick Wilson
      露西·哈钦森 Lucy Hutchinson
      尚恩·斯坦恩 Shane Steyn
      John Lebar John Lebar
      弗拉基米尔·弗迪克 Vladimir Furdik
      丹尼尔·詹姆斯 Daniel James
      菲利普·麦金利 Philip McGinley
      伊恩·怀特 Ian Whyte

◎简  介
  21世纪末,人类的科技水平已高度发达,克隆人技术和宇宙航行早已实现,不再是梦想。与此同时,许多科学家仍孜孜不倦追索着人类起源的秘密与真相。通过对许多古老文明的考察与对比,科学家伊丽莎白·肖(Noomi Rapace 饰)和查理·赫洛维(Logan Marshall-Green 饰)发现,人类可能是来自一个遥远星系的外星人创造的。在Weyland公司资助下,他们乘坐维克丝(查理兹·塞隆 Charlize Theron 饰)所掌管的宇宙飞船普罗米修斯号前往那颗未知的星球。

  经过对当地的考察,地球人的设想成功得到印证。可是他们贸然探查“神的秘密”的行为,也将自己引入万劫不复的深渊……
##### MediaInfo ######
General
Unique ID : 295018317482596142387174247954750512184 (0xDDF2760FC71178774F8B7C0BE2AA1C38)
Complete name : Prometheus.2012.2160p.UHD.BluRay.x265.10bit.HDR.DTS-HD.MA.7.1-SONYHD.mkv
Duration : 2 h 3 min
Overall bit rate mode : Variable
Overall bit rate : 14.1 Mb/s

Video
ID : 1
Format : HEVC
Format/Info : High Efficiency Video Coding
Format profile : Main [email protected]@High
HDR format : SMPTE ST 2086, HDR10 compatible
Codec ID : V_MPEGH/ISO/HEVC
Duration : 2 h 3 min
Bit rate : 9 095 kb/s
Width : 3 840 pixels
Height : 1 600 pixels
Display aspect ratio : 2.40:1
Frame rate mode : Constant
Frame rate : 23.976 (24000/1001) FPS
Color space : YUV
Chroma subsampling : 4:2:0 (Type 2)
Bit depth : 10 bits
Bits/(Pixel*Frame) : 0.062
Stream size : 7.86 GiB (64%)
Writing library : x265 3.5g2b25c9ba0+45:[Windows][MSVC 1926][64 bit] Yuuki 10bit+8bit+12bit
Encoding settings : rc=crf / crf=20.9600 / qcomp=0.60 / qpstep=4 / stats-write=0 / stats-read=0 / vbv-maxrate=160000 / vbv-bufsize=160000 / vbv-init=0.9 / min-vbv-fullness=50.0 / max-vbv-fullness=80.0 / crf-max=0.0 / crf-min=0.0 / no-lossless / no-cu-lossless / aq-mode=3 / aq-strength=0.70 / cbqpoffs=0 / crqpoffs=0 / ipratio=1.40 / pbratio=1.30 / psy-rd=2.00 / psy-rdoq=2.00 / deblock=-3:-3 / ref=6 / limit-refs=1 / no-limit-modes / bframes=11 / b-adapt=2 / bframe-bias=0 / b-pyramid / b-intra / weightp / weightb / min-keyint=1 / max-keyint=240 / rc-lookahead=72 / gop-lookahead=0 / scenecut=40 / hist-scenecut=0 / radl=0 / max-cu-size=64 / min-cu-size=8 / me=3 / subme=6 / merange=48 / rdoq-level=2 / rd=4 / rdpenalty=0 / dynamic-rd=0.00 / no-rd-refine / ----- / no-cutree / no-sao / no-rect / no-amp / no-open-gop / wpp / no-pmode / no-pme / no-psnr / no-ssim / nr-intra=0 / nr-inter=0 / no-constrained-intra / no-strong-intra-smoothing / max-tu-size=32 / tu-inter-depth=4 / tu-intra-depth=4 / limit-tu=0 / qg-size=32 / qpmax=69 / qpmin=0 / ----- / cpuid=1111039 / frame-threads=4 / numa-pools=+ / log-level=2 / input-csp=1 / input-res=3840x1600 / interlace=0 / level-idc=51 / high-tier=1 / uhd-bd=0 / no-allow-non-conformance / repeat-headers / aud / no-hrd / info / hash=0 / no-temporal-layers / lookahead-slices=0 / no-splice / no-intra-refresh / no-ssim-rd / signhide / no-tskip / max-merge=5 / temporal-mvp / no-frame-dup / no-hme / analyze-src-pics / no-sao-non-deblock / selective-sao=0 / early-skip / rskip / no-fast-intra / no-tskip-fast / no-splitrd-skip / zone-count=0 / no-strict-cbr / no-rc-grain / no-const-vbv / sar=0 / overscan=0 / videoformat=5 / range=0 / colorprim=9 / transfer=16 / colormatrix=9 / chromaloc=1 / chromaloc-top=2 / chromaloc-bottom=2 / display-window=0 / master-display=G(13250,34500)B(7500,3000)R(34000,16000)WP(15635,16450)L(10000000,50) / cll=0,0 / min-luma=0 / max-luma=1023 / log2-max-poc-lsb=8 / vui-timing-info / vui-hrd-info / slices=1 / no-opt-qp-pps / no-opt-ref-list-length-pps / no-multi-pass-opt-rps / scenecut-bias=0.05 / hist-threshold=0.03 / no-opt-cu-delta-qp / no-aq-motion / hdr10 / hdr10-opt / no-dhdr10-opt / no-idr-recovery-sei / analysis-reuse-level=0 / analysis-save-reuse-level=0 / analysis-load-reuse-level=0 / scale-factor=0 / refine-intra=0 / refine-inter=0 / refine-mv=1 / refine-ctu-distortion=0 / no-limit-sao / ctu-info=0 / no-lowpass-dct / refine-analysis-type=0 / copy-pic=1 / max-ausize-factor=1.0 / no-dynamic-refine / no-single-sei / no-hevc-aq / no-svt / no-field / qp-adaptation-range=1.00 / scenecut-aware-qp=0conformance-window-offsets / right=0 / bottom=0 / decoder-max-rate=0 / no-vbv-live-multi-pass
Default : Yes
Forced : No
Color range : Limited
Color primaries : BT.2020
Transfer characteristics : PQ
Matrix coefficients : BT.2020 non-constant
Mastering display color primaries : Display P3
Mastering display luminance : min: 0.0050 cd/m2, max: 1000 cd/m2

Audio
ID : 2
ID in the original source medium : 4352 (0x1100)
Format : DTS XLL
Format/Info : Digital Theater Systems
Commercial name : DTS-HD Master Audio
Codec ID : A_DTS
Duration : 2 h 3 min
Bit rate mode : Variable
Bit rate : 4 987 kb/s
Channel(s) : 8 channels
Channel layout : C L R LFE Lb Rb Lss Rss
Sampling rate : 48.0 kHz
Frame rate : 93.750 FPS (512 SPF)
Bit depth : 24 bits
Compression mode : Lossless
Stream size : 4.31 GiB (35%)
Title : English
Language : English
Default : Yes
Forced : No
Original source medium : Blu-ray

Text #1
ID : 3
ID in the original source medium : 4796 (0x12BC)
Format : PGS
Muxing mode : zlib
Codec ID : S_HDMV/PGS
Codec ID/Info : Picture based subtitle format used on BDs/HD-DVDs
Duration : 1 h 56 min
Bit rate : 31.4 kb/s
Frame rate : 0.214 FPS
Count of elements : 1501
Stream size : 26.3 MiB (0%)
Title : chs&eng
Language : Chinese
Default : Yes
Forced : No
Original source medium : Blu-ray

Text #2
ID : 4
ID in the original source medium : 4797 (0x12BD)
Format : PGS
Muxing mode : zlib
Codec ID : S_HDMV/PGS
Codec ID/Info : Picture based subtitle format used on BDs/HD-DVDs
Duration : 1 h 56 min
Bit rate : 31.6 kb/s
Frame rate : 0.214 FPS
Count of elements : 1501
Stream size : 26.4 MiB (0%)
Title : cht&eng
Language : Chinese
Default : No
Forced : No
Original source medium : Blu-ray

Text #3
ID : 5
ID in the original source medium : 4798 (0x12BE)
Format : PGS
Muxing mode : zlib
Codec ID : S_HDMV/PGS
Codec ID/Info : Picture based subtitle format used on BDs/HD-DVDs
Duration : 1 h 56 min
Bit rate : 16.7 kb/s
Frame rate : 0.214 FPS
Count of elements : 1501
Stream size : 13.9 MiB (0%)
Title : chs
Language : Chinese
Default : No
Forced : No
Original source medium : Blu-ray

Text #4
ID : 6
ID in the original source medium : 4799 (0x12BF)
Format : PGS
Muxing mode : zlib
Codec ID : S_HDMV/PGS
Codec ID/Info : Picture based subtitle format used on BDs/HD-DVDs
Duration : 1 h 56 min
Bit rate : 16.8 kb/s
Frame rate : 0.214 FPS
Count of elements : 1501
Stream size : 14.1 MiB (0%)
Title : cht
Language : Chinese
Default : No
Forced : No
Original source medium : Blu-ray

Text #5
ID : 7
ID in the original source medium : 4768 (0x12A0)
Format : PGS
Muxing mode : zlib
Codec ID : S_HDMV/PGS
Codec ID/Info : Picture based subtitle format used on BDs/HD-DVDs
Duration : 1 h 59 min
Bit rate : 28.6 kb/s
Frame rate : 0.446 FPS
Count of elements : 3206
Stream size : 24.5 MiB (0%)
Title : eng
Language : English
Default : No
Forced : No
Original source medium : Blu-ray

Menu
00:00:00.000 : en:Chapter 01
00:05:00.000 : en:Chapter 02
00:10:00.000 : en:Chapter 03
00:15:00.000 : en:Chapter 04
00:20:00.000 : en:Chapter 05
00:25:00.000 : en:Chapter 06
00:30:00.000 : en:Chapter 07
00:35:00.000 : en:Chapter 08
00:40:00.000 : en:Chapter 09
00:45:00.000 : en:Chapter 10
00:50:00.000 : en:Chapter 11
00:55:00.000 : en:Chapter 12
01:00:00.000 : en:Chapter 13
01:05:00.000 : en:Chapter 14
01:10:00.000 : en:Chapter 15
01:15:00.000 : en:Chapter 16
01:20:00.000 : en:Chapter 17
01:25:00.000 : en:Chapter 18
01:30:00.000 : en:Chapter 19
01:35:00.000 : en:Chapter 20
01:40:00.000 : en:Chapter 21
01:45:00.000 : en:Chapter 22
01:50:00.000 : en:Chapter 23
01:55:00.000 : en:Chapter 24
02:00:00.000 : en:Chapter 25


部分资源为软字幕,移动端推荐播放器:MxPlayer,nPlayer,infuse ,其他播放器请自行尝试。
部分资源为软字幕,电脑端推荐播放器:PotPlayer,完美解码,KMPLAYER,其他播放器请自行尝试。
下载端推荐纯BT下载软件:qBittorrent,Bitcomet,uTorrent ,其他下载软件请自行尝试。不支持吸血迅雷。
游客,如果您要查看本帖隐藏内容请回复开通VIP会员可免回复、不扣积分下载种子附件,点击开通VIP会员
古哥影视论坛 www.guge09.com 高清电影,蓝光电影,最新电影,电影天堂,影视帝国,人人影视
  • TA的每日心情
    开心
    22 小时前
  • 签到天数: 443 天

    [LV.9]以坛为家II

    发表于 6 天前 | 显示全部楼层
    还记得第一次看的时候超级震撼,是异形的忠实影迷
    古哥影视论坛 www.guge09.com 高清电影,蓝光电影,最新电影,电影天堂,影视帝国,人人影视

    该用户从未签到

    发表于 6 天前 | 显示全部楼层
    好片得洗一洗,谢谢了
    古哥影视论坛 www.guge09.com 高清电影,蓝光电影,最新电影,电影天堂,影视帝国,人人影视

    该用户从未签到

    发表于 6 天前 | 显示全部楼层
    好想看  谢谢分享
    古哥影视论坛 www.guge09.com 高清电影,蓝光电影,最新电影,电影天堂,影视帝国,人人影视

    该用户从未签到

    发表于 6 天前 | 显示全部楼层
    好片得洗一洗,谢谢了
    古哥影视论坛 www.guge09.com 高清电影,蓝光电影,最新电影,电影天堂,影视帝国,人人影视

    该用户从未签到

    发表于 6 天前 | 显示全部楼层
    好想看  谢谢分享
    古哥影视论坛 www.guge09.com 高清电影,蓝光电影,最新电影,电影天堂,影视帝国,人人影视
  • TA的每日心情

    3 小时前
  • 签到天数: 733 天

    [LV.9]以坛为家II

    发表于 6 天前 | 显示全部楼层
    感谢楼主分享!
    古哥影视论坛 www.guge09.com 高清电影,蓝光电影,最新电影,电影天堂,影视帝国,人人影视

    该用户从未签到

    发表于 6 天前 | 显示全部楼层
    超级震撼超级震撼
    古哥影视论坛 www.guge09.com 高清电影,蓝光电影,最新电影,电影天堂,影视帝国,人人影视
  • TA的每日心情
    奋斗
    20 小时前
  • 签到天数: 323 天

    [LV.8]以坛为家I

    发表于 5 天前 | 显示全部楼层
    感谢楼主分享
    古哥影视论坛 www.guge09.com 高清电影,蓝光电影,最新电影,电影天堂,影视帝国,人人影视
  • TA的每日心情
    开心
    3 天前
  • 签到天数: 55 天

    [LV.5]常住居民I

    发表于 5 天前 来自手机 | 显示全部楼层
    提示: 作者被禁止或删除 内容自动屏蔽
    古哥影视论坛 www.guge09.com 高清电影,蓝光电影,最新电影,电影天堂,影视帝国,人人影视
    您需要登录后才可以回帖 登录 | 注册(分享大片)

    本版积分规则

    免责声明
    本站提供网上学习交流和自由讨论使用,所有资源均来自互联网公开渠道,发布和个人言论并不代表本站立场,本站不负任何责任.
    如发现有侵权行为,请与我们联系.我们将立刻从网站上删除,并向所有持版权者致最深歉意.
    已经安全运行

    QQ|小黑屋|手机版|Archiver|古哥论坛

    GMT+8, 2024-5-21 22:24 , Processed in 0.286602 second(s), 29 queries , Gzip On.

    Powered by Discuz! X3.4

    Copyright © 2001-2021, Tencent Cloud.

    快速回复 返回顶部 返回列表