古哥论坛

 找回密码
 注册(分享大片)
查看: 103|回复: 3

[正午]1952.2160p.UHD.BluRay.x265.10bit.DV.DTS-HD.MA.2.0-SONYHD 中英字幕/18.83GB

[复制链接]

该用户从未签到

发表于 7 天前 | 显示全部楼层 |阅读模式
4K天堂

◎标  题 正午
◎译  名 日正当中 / 龙城歼霸战(港)
◎片  名 High Noon
◎年  代 1952
◎产  地 美国
◎类  别 剧情 / 西部
◎语  言 英语
◎上映日期 1952-07-07(美国)
◎IMDb评分 8/10 (108881人评价)
◎IMDb链接 https://www.imdb.com/title/tt0044706/
◎豆瓣评分 8.4/10 (25096人评价)
◎豆瓣链接 https://movie.douban.com/subject/1298521/
◎片  长 85分钟
◎导  演 弗雷德·金尼曼 Fred Zinnemann
◎编  剧 卡尔·福尔曼 Carl Foreman
◎演  员 加里·库珀 Gary Cooper
      格蕾丝·凯利 Grace Kelly
      托马斯·米切尔 Thomas Mitchell
      劳埃德·布里吉斯 Lloyd Bridges
      凯蒂·乔拉杜 Katy Jurado
      奥托·克鲁格 Otto Kruger
      小朗·钱尼 Lon Chaney Jr.
      李·范·克里夫 Lee Van Cleef
      伊恩·麦克唐纳 Ian MacDonald

◎简  介
  小镇执法官威尔·凯恩(加里·库柏 Gary Cooper 饰)在卸任的当天,同未婚妻艾米(Grace Kelly 饰)举行了婚礼,两人预备开始蜜月旅行的当口,小镇迎来了三位不速之客,他们是皮尔斯、科比和本,三人在火车站等候五年前被威尔抓获的恶棍弗兰克·米勒。预感小镇将被卷入一场血腥仇杀的人们纷纷躲避,或者力劝威尔离开,但前任执法官执意留下,并开始在镇上寻找帮手,岂料不得升迁的员警哈维、当年审判弗兰克的法官等人全部与此事撇清了关系,新婚妻子亦不支持威尔的坚守,孤立无援的威尔只得拿起自己的枪战斗……

  这部影片中的时间与真实世界中的时间步调一致。本片获1953年奥斯卡最佳男主角奖等十余项专业褒奖。
##### MediaInfo ######
General
Unique ID : 311701373852759480263736272593416827726 (0xEA7F803EFA59DEED5CF8D5F5EF33334E)
Complete name : High.Noon.1952.2160p.UHD.BluRay.x265.10bit.DV.DTS-HD.MA.2.0-SONYHD.mkv
Duration : 1 h 24 min
Overall bit rate mode : Variable
Overall bit rate : 31.8 Mb/s

Video
ID : 1
Format : HEVC
Format/Info : High Efficiency Video Coding
Format profile : Main [email protected]@High
HDR format : Dolby Vision, Version 1.0, dvhe.08.06, BL+RPU, HDR10 compatible / SMPTE ST 2086, HDR10 compatible
Codec ID : V_MPEGH/ISO/HEVC
Duration : 1 h 24 min
Bit rate : 30.1 Mb/s
Width : 2 880 pixels
Height : 2 160 pixels
Display aspect ratio : 4:3
Frame rate mode : Constant
Frame rate : 23.976 (24000/1001) FPS
Color space : YUV
Chroma subsampling : 4:2:0 (Type 2)
Bit depth : 10 bits
Bits/(Pixel*Frame) : 0.202
Stream size : 17.8 GiB (95%)
Writing library : x265 3.5g2b25c9ba0+45:[Windows][MSVC 1926][64 bit] Yuuki 10bit+8bit+12bit
Encoding settings : rc=crf / crf=21.4100 / qcomp=0.60 / qpstep=4 / stats-write=0 / stats-read=0 / vbv-maxrate=160000 / vbv-bufsize=160000 / vbv-init=0.9 / min-vbv-fullness=50.0 / max-vbv-fullness=80.0 / crf-max=0.0 / crf-min=0.0 / no-lossless / no-cu-lossless / aq-mode=3 / aq-strength=0.70 / cbqpoffs=0 / crqpoffs=0 / ipratio=1.40 / pbratio=1.30 / psy-rd=2.00 / psy-rdoq=2.00 / deblock=-3:-3 / ref=6 / limit-refs=1 / no-limit-modes / bframes=11 / b-adapt=2 / bframe-bias=0 / b-pyramid / b-intra / weightp / weightb / min-keyint=1 / max-keyint=240 / rc-lookahead=72 / gop-lookahead=0 / scenecut=40 / hist-scenecut=0 / radl=0 / max-cu-size=64 / min-cu-size=8 / me=3 / subme=6 / merange=48 / rdoq-level=2 / rd=4 / rdpenalty=0 / dynamic-rd=0.00 / no-rd-refine / ----- / no-cutree / no-sao / no-rect / no-amp / no-open-gop / wpp / no-pmode / no-pme / no-psnr / no-ssim / nr-intra=0 / nr-inter=0 / no-constrained-intra / no-strong-intra-smoothing / max-tu-size=32 / tu-inter-depth=4 / tu-intra-depth=4 / limit-tu=0 / qg-size=32 / qpmax=69 / qpmin=0 / ----- / cpuid=1111039 / frame-threads=4 / numa-pools=+ / log-level=2 / input-csp=1 / input-res=2880x2160 / interlace=0 / level-idc=51 / high-tier=1 / uhd-bd=0 / no-allow-non-conformance / repeat-headers / aud / hrd / info / hash=0 / no-temporal-layers / lookahead-slices=0 / no-splice / no-intra-refresh / no-ssim-rd / signhide / no-tskip / max-merge=5 / temporal-mvp / no-frame-dup / no-hme / analyze-src-pics / no-sao-non-deblock / selective-sao=0 / early-skip / rskip / no-fast-intra / no-tskip-fast / no-splitrd-skip / zone-count=0 / no-strict-cbr / no-rc-grain / no-const-vbv / sar=0 / overscan=0 / videoformat=5 / range=0 / colorprim=9 / transfer=16 / colormatrix=9 / chromaloc=1 / chromaloc-top=2 / chromaloc-bottom=2 / display-window=0 / master-display=G(13250,34500)B(7500,3000)R(34000,16000)WP(15635,16450)L(10000000,1) / cll=286,52 / min-luma=0 / max-luma=1023 / log2-max-poc-lsb=8 / vui-timing-info / vui-hrd-info / slices=1 / no-opt-qp-pps / no-opt-ref-list-length-pps / no-multi-pass-opt-rps / scenecut-bias=0.05 / hist-threshold=0.03 / no-opt-cu-delta-qp / no-aq-motion / hdr10 / hdr10-opt / no-dhdr10-opt / no-idr-recovery-sei / analysis-reuse-level=0 / analysis-save-reuse-level=0 / analysis-load-reuse-level=0 / scale-factor=0 / refine-intra=0 / refine-inter=0 / refine-mv=1 / refine-ctu-distortion=0 / no-limit-sao / ctu-info=0 / no-lowpass-dct / refine-analysis-type=0 / copy-pic=1 / max-ausize-factor=1.0 / no-dynamic-refine / no-single-sei / no-hevc-aq / no-svt / no-field / qp-adaptation-range=1.00 / scenecut-aware-qp=0conformance-window-offsets / right=0 / bottom=0 / decoder-max-rate=0 / no-vbv-live-multi-pass
Default : Yes
Forced : No
Color range : Limited
Color primaries : BT.2020
Transfer characteristics : PQ
Matrix coefficients : BT.2020 non-constant
Mastering display color primaries : Display P3
Mastering display luminance : min: 0.0001 cd/m2, max: 1000 cd/m2
Maximum Content Light Level : 286 cd/m2
Maximum Frame-Average Light Level : 52 cd/m2

Audio
ID : 2
ID in the original source medium : 4352 (0x1100)
Format : DTS XLL
Format/Info : Digital Theater Systems
Commercial name : DTS-HD Master Audio
Codec ID : A_DTS
Duration : 1 h 24 min
Bit rate mode : Variable
Bit rate : 1 563 kb/s
Channel(s) : 2 channels
Channel layout : L R
Sampling rate : 48.0 kHz
Frame rate : 93.750 FPS (512 SPF)
Bit depth : 24 bits
Compression mode : Lossless
Stream size : 948 MiB (5%)
Title : English
Language : English
Default : Yes
Forced : No
Original source medium : Blu-ray

Text #1
ID : 3
ID in the original source medium : 4769 (0x12A1)
Format : PGS
Muxing mode : zlib
Codec ID : S_HDMV/PGS
Codec ID/Info : Picture based subtitle format used on BDs/HD-DVDs
Duration : 1 h 23 min
Bit rate : 48.0 kb/s
Frame rate : 0.344 FPS
Count of elements : 1717
Stream size : 28.6 MiB (0%)
Title : chs&eng
Language : Chinese
Default : Yes
Forced : No
Original source medium : Blu-ray

Text #2
ID : 4
ID in the original source medium : 4770 (0x12A2)
Format : PGS
Muxing mode : zlib
Codec ID : S_HDMV/PGS
Codec ID/Info : Picture based subtitle format used on BDs/HD-DVDs
Duration : 1 h 23 min
Bit rate : 48.2 kb/s
Frame rate : 0.344 FPS
Count of elements : 1717
Stream size : 28.6 MiB (0%)
Title : cht&eng
Language : Chinese
Default : No
Forced : No
Original source medium : Blu-ray

Text #3
ID : 5
ID in the original source medium : 4771 (0x12A3)
Format : PGS
Muxing mode : zlib
Codec ID : S_HDMV/PGS
Codec ID/Info : Picture based subtitle format used on BDs/HD-DVDs
Duration : 1 h 23 min
Bit rate : 29.0 kb/s
Frame rate : 0.344 FPS
Count of elements : 1717
Stream size : 17.2 MiB (0%)
Title : chs
Language : Chinese
Default : No
Forced : No
Original source medium : Blu-ray

Text #4
ID : 6
ID in the original source medium : 4772 (0x12A4)
Format : PGS
Muxing mode : zlib
Codec ID : S_HDMV/PGS
Codec ID/Info : Picture based subtitle format used on BDs/HD-DVDs
Duration : 1 h 23 min
Bit rate : 29.1 kb/s
Frame rate : 0.344 FPS
Count of elements : 1717
Stream size : 17.3 MiB (0%)
Title : cht
Language : Chinese
Default : No
Forced : No
Original source medium : Blu-ray

Text #5
ID : 7
ID in the original source medium : 4768 (0x12A0)
Format : PGS
Muxing mode : zlib
Codec ID : S_HDMV/PGS
Codec ID/Info : Picture based subtitle format used on BDs/HD-DVDs
Duration : 1 h 24 min
Bit rate : 30.8 kb/s
Frame rate : 0.333 FPS
Count of elements : 1687
Stream size : 18.6 MiB (0%)
Title : eng
Language : English
Default : No
Forced : No
Original source medium : Blu-ray

Menu
00:00:00.000 : en:Chapter 01
00:06:18.961 : en:Chapter 02
00:13:38.274 : en:Chapter 03
00:26:58.032 : en:Chapter 04
00:43:13.965 : en:Chapter 05
00:54:40.025 : en:Chapter 06
01:08:08.166 : en:Chapter 07
01:13:51.510 : en:Chapter 08

部分资源为软字幕,移动端推荐播放器:MxPlayer,nPlayer,infuse ,其他播放器请自行尝试。
部分资源为软字幕,电脑端推荐播放器:PotPlayer,完美解码,KMPLAYER,其他播放器请自行尝试。
下载端推荐纯BT下载软件:qBittorrent,Bitcomet,uTorrent ,其他下载软件请自行尝试。不支持吸血迅雷。

游客,如果您要查看本帖隐藏内容请回复开通VIP会员可免回复、不扣积分下载种子附件,点击开通VIP会员
古哥影视论坛 www.guge09.com 高清电影,蓝光电影,最新电影,电影天堂,影视帝国,人人影视
  • TA的每日心情
    慵懒
    20 小时前
  • 签到天数: 596 天

    [LV.9]以坛为家II

    发表于 6 天前 | 显示全部楼层
    如此的老电影还是蓝光版本的,稀有了,多谢分享啦
    古哥影视论坛 www.guge09.com 高清电影,蓝光电影,最新电影,电影天堂,影视帝国,人人影视

    该用户从未签到

    发表于 6 天前 | 显示全部楼层
    感谢楼主无私分享
    古哥影视论坛 www.guge09.com 高清电影,蓝光电影,最新电影,电影天堂,影视帝国,人人影视
  • TA的每日心情
    开心
    9 小时前
  • 签到天数: 1094 天

    [LV.10]以坛为家III

    发表于 6 天前 | 显示全部楼层
    早期西部片值得欣赏
    古哥影视论坛 www.guge09.com 高清电影,蓝光电影,最新电影,电影天堂,影视帝国,人人影视
    您需要登录后才可以回帖 登录 | 注册(分享大片)

    本版积分规则

    免责声明
    本站提供网上学习交流和自由讨论使用,所有资源均来自互联网公开渠道,发布和个人言论并不代表本站立场,本站不负任何责任.
    如发现有侵权行为,请与我们联系.我们将立刻从网站上删除,并向所有持版权者致最深歉意.
    已经安全运行

    QQ|小黑屋|手机版|Archiver|古哥论坛

    GMT+8, 2024-5-21 21:10 , Processed in 0.277490 second(s), 29 queries , Gzip On.

    Powered by Discuz! X3.4

    Copyright © 2001-2021, Tencent Cloud.

    快速回复 返回顶部 返回列表