古哥论坛

 找回密码
 注册(分享大片)
查看: 110|回复: 10

[1080P] [涉过愤怒的海].2023.1080p.BluRay.x265.10bit.DTS.2Audio-SONYHD 国语中字/7.20GB

[复制链接]

该用户从未签到

发表于 6 天前 | 显示全部楼层 |阅读模式
4K天堂

◎标  题 涉过愤怒的海
◎译  名 怒海 / Across the Furious Sea
◎年  代 2023
◎产  地 中国大陆
◎类  别 剧情 / 悬疑 / 犯罪
◎语  言 汉语普通话 / 日语 / 德语 / 胶辽官话
◎上映日期 2023-11-25(中国大陆)
◎IMDb评分 7.1/10 (314人评价)
◎IMDb链接 https://www.imdb.com/title/tt12151818/
◎豆瓣评分 7.5/10 (289751人评价)
◎豆瓣链接 https://movie.douban.com/subject/33456512/
◎片  长 144分钟
◎导  演 曹保平 Baoping Cao
◎编  剧 曹保平 Baoping Cao
      武皮皮 Pipi Wu
      焦华静 Huajing Jiao
      老晃 Lao Huang
◎演  员 黄渤 Bo Huang
      周迅 Xun Zhou
      祖峰 Feng Zu
      张宥浩 Youhao Zhang
      周依然 Yiran Zhou
      颜北 Bei Yan
      孙安可 Anke Sun
      闫妮 Ni Yan
      王迅 Xun Wang
      阿部力 Tsuyoshi Abe
      施诗 Shi Shi
      谢锐韬 Tizzy T
      池田良 Ryô Ikeda
      刘亦然 Yiran Liu
      张宏威 Hongwei Zhang

◎简  介
  老金(黄渤 饰)为供女儿金丽娜(周依然 饰)留学终日捕鱼,却换来女儿身中17刀离奇身亡的死讯,最大嫌疑人则指向她的男友李苗苗(张宥浩 饰)。愤怒的老金踏上跨海寻仇之路,李苗苗却在母亲景岚(周迅 饰)的庇护下不断潜逃……这场人性迷局中,究竟谁能抵达爱与宽恕的彼岸?
##### MediaInfo ######
General
Unique ID : 97530180985258062819608318008653400639 (0x495FA12DBC016AA65F06BEFBD9EE4A3F)
Complete name : Across.the.Furious.Sea.2023.1080p.BluRay.x265.10bit.DTS.2Audio-SONYHD.mkv
Duration : 2 h 23 min
Overall bit rate : 7 158 kb/s

Video
ID : 1
Format : HEVC
Format/Info : High Efficiency Video Coding
Format profile : Main 10@L5@Main
Codec ID : V_MPEGH/ISO/HEVC
Duration : 2 h 23 min
Bit rate : 5 248 kb/s
Width : 1 920 pixels
Height : 1 012 pixels
Display aspect ratio : 1.897
Frame rate mode : Constant
Frame rate : 24.000 FPS
Color space : YUV
Chroma subsampling : 4:2:0
Bit depth : 10 bits
Bits/(Pixel*Frame) : 0.113
Stream size : 5.28 GiB (73%)
Writing library : x265 3.5g2b25c9ba0+45:[Windows][GCC 10.2.0][64 bit] Yuuki 10bit+8bit+12bit
Encoding settings : rc=crf / crf=16.0000 / qcomp=0.60 / qpstep=4 / stats-write=0 / stats-read=0 / no-lossless / no-cu-lossless / aq-mode=3 / aq-strength=0.90 / cbqpoffs=0 / crqpoffs=0 / ipratio=1.40 / pbratio=1.30 / psy-rd=2.00 / psy-rdoq=0.00 / deblock=0:0 / ref=6 / limit-refs=1 / no-limit-modes / bframes=8 / b-adapt=2 / bframe-bias=0 / b-pyramid / b-intra / weightp / weightb / min-keyint=24 / max-keyint=240 / rc-lookahead=24 / gop-lookahead=0 / scenecut=40 / hist-scenecut=0 / radl=0 / max-cu-size=64 / min-cu-size=8 / me=3 / subme=7 / merange=48 / rdoq-level=0 / rd=4 / rdpenalty=0 / dynamic-rd=0.00 / no-rd-refine / ----- / cutree / sao / no-rect / no-amp / no-open-gop / wpp / no-pmode / no-pme / no-psnr / no-ssim / nr-intra=0 / nr-inter=0 / no-constrained-intra / no-strong-intra-smoothing / max-tu-size=32 / tu-inter-depth=1 / tu-intra-depth=1 / limit-tu=0 / qg-size=32 / qpmax=69 / qpmin=0 / ----- / cpuid=1111039 / frame-threads=4 / numa-pools=+ / log-level=2 / input-csp=1 / input-res=1920x1012 / interlace=0 / level-idc=0 / high-tier=1 / uhd-bd=0 / no-allow-non-conformance / no-repeat-headers / aud / no-hrd / info / hash=0 / no-temporal-layers / lookahead-slices=0 / no-splice / no-intra-refresh / no-ssim-rd / signhide / no-tskip / max-merge=3 / temporal-mvp / no-frame-dup / no-hme / no-analyze-src-pics / no-sao-non-deblock / selective-sao=4 / early-skip / rskip / no-fast-intra / no-tskip-fast / no-splitrd-skip / zone-count=0 / no-strict-cbr / no-rc-grain / no-const-vbv / sar=0 / overscan=0 / videoformat=5 / range=0 / colorprim=2 / transfer=2 / colormatrix=2 / chromaloc=0 / display-window=0 / cll=0,0 / min-luma=0 / max-luma=1023 / log2-max-poc-lsb=8 / vui-timing-info / vui-hrd-info / slices=1 / no-opt-qp-pps / no-opt-ref-list-length-pps / no-multi-pass-opt-rps / scenecut-bias=0.05 / hist-threshold=0.03 / no-opt-cu-delta-qp / no-aq-motion / no-hdr10 / no-hdr10-opt / no-dhdr10-opt / no-idr-recovery-sei / analysis-reuse-level=0 / analysis-save-reuse-level=0 / analysis-load-reuse-level=0 / scale-factor=0 / refine-intra=0 / refine-inter=0 / refine-mv=1 / refine-ctu-distortion=0 / no-limit-sao / ctu-info=0 / no-lowpass-dct / refine-analysis-type=0 / copy-pic=1 / max-ausize-factor=1.0 / no-dynamic-refine / no-single-sei / no-hevc-aq / no-svt / no-field / qp-adaptation-range=1.00 / scenecut-aware-qp=0conformance-window-offsets / right=0 / bottom=0 / decoder-max-rate=0 / no-vbv-live-multi-pass
Default : Yes
Forced : No

Audio #1
ID : 2
ID in the original source medium : 4352 (0x1100)
Format : DTS
Format/Info : Digital Theater Systems
Codec ID : A_DTS
Duration : 2 h 23 min
Bit rate mode : Constant
Bit rate : 1 509 kb/s
Channel(s) : 6 channels
Channel layout : C L R Ls Rs LFE
Sampling rate : 48.0 kHz
Frame rate : 93.750 FPS (512 SPF)
Bit depth : 24 bits
Compression mode : Lossy
Stream size : 1.52 GiB (21%)
Language : Chinese
Default : Yes
Forced : No
Original source medium : Blu-ray

Audio #2
ID : 3
ID in the original source medium : 4353 (0x1101)
Format : AC-3
Format/Info : Audio Coding 3
Commercial name : Dolby Digital
Codec ID : A_AC3
Duration : 2 h 23 min
Bit rate mode : Constant
Bit rate : 384 kb/s
Channel(s) : 2 channels
Channel layout : L R
Sampling rate : 48.0 kHz
Frame rate : 31.250 FPS (1536 SPF)
Compression mode : Lossy
Stream size : 395 MiB (5%)
Title : Commentary
Language : Chinese
Service kind : Complete Main
Default : No
Forced : No
Original source medium : Blu-ray

Text #1
ID : 4
ID in the original source medium : 4608 (0x1200)
Format : PGS
Muxing mode : zlib
Codec ID : S_HDMV/PGS
Codec ID/Info : Picture based subtitle format used on BDs/HD-DVDs
Duration : 2 h 16 min
Bit rate : 13.2 kb/s
Frame rate : 0.245 FPS
Count of elements : 2004
Stream size : 12.8 MiB (0%)
Title : chs
Language : Chinese
Default : Yes
Forced : No
Original source medium : Blu-ray

Text #2
ID : 5
ID in the original source medium : 4609 (0x1201)
Format : PGS
Muxing mode : zlib
Codec ID : S_HDMV/PGS
Codec ID/Info : Picture based subtitle format used on BDs/HD-DVDs
Duration : 2 h 17 min
Bit rate : 16.9 kb/s
Frame rate : 0.248 FPS
Count of elements : 2045
Stream size : 16.6 MiB (0%)
Title : eng
Language : English
Default : No
Forced : No
Original source medium : Blu-ray

Menu
00:00:00.000 : en:Chapter 01
00:13:57.583 : en:Chapter 02
00:27:10.833 : en:Chapter 03
00:42:31.750 : en:Chapter 04
00:51:20.458 : en:Chapter 05
00:58:01.708 : en:Chapter 06
01:08:23.583 : en:Chapter 07
01:26:44.916 : en:Chapter 08
01:36:24.375 : en:Chapter 09
01:51:53.250 : en:Chapter 10
02:03:29.458 : en:Chapter 11
02:17:14.833 : en:Chapter 12


部分资源为软字幕,移动端推荐播放器:MxPlayer,nPlayer,infuse ,其他播放器请自行尝试。
部分资源为软字幕,电脑端推荐播放器:PotPlayer,完美解码,KMPLAYER,其他播放器请自行尝试。
下载端推荐纯BT下载软件:qBittorrent,Bitcomet,uTorrent ,其他下载软件请自行尝试。不支持吸血迅雷。
游客,如果您要查看本帖隐藏内容请回复开通VIP会员可免回复、不扣积分下载种子附件,点击开通VIP会员
古哥影视论坛 www.guge09.com 高清电影,蓝光电影,最新电影,电影天堂,影视帝国,人人影视
  • TA的每日心情
    开心
    10 小时前
  • 签到天数: 160 天

    [LV.7]常住居民III

    发表于 6 天前 | 显示全部楼层
    下载收藏,这片很好看
    古哥影视论坛 www.guge09.com 高清电影,蓝光电影,最新电影,电影天堂,影视帝国,人人影视
  • TA的每日心情
    奋斗
    2022-1-18 21:33
  • 签到天数: 2 天

    [LV.1]初来乍到

    发表于 6 天前 | 显示全部楼层
    多谢楼主分享!!!
    古哥影视论坛 www.guge09.com 高清电影,蓝光电影,最新电影,电影天堂,影视帝国,人人影视

    该用户从未签到

    发表于 6 天前 | 显示全部楼层
    好想看  谢谢分享
    古哥影视论坛 www.guge09.com 高清电影,蓝光电影,最新电影,电影天堂,影视帝国,人人影视

    该用户从未签到

    发表于 6 天前 | 显示全部楼层
    谢谢楼主分享
    古哥影视论坛 www.guge09.com 高清电影,蓝光电影,最新电影,电影天堂,影视帝国,人人影视

    该用户从未签到

    发表于 6 天前 | 显示全部楼层

    下载收藏,这片很好看
    古哥影视论坛 www.guge09.com 高清电影,蓝光电影,最新电影,电影天堂,影视帝国,人人影视
  • TA的每日心情
    开心
    4 天前
  • 签到天数: 437 天

    [LV.9]以坛为家II

    发表于 6 天前 | 显示全部楼层
    评分很高的国产电影
    古哥影视论坛 www.guge09.com 高清电影,蓝光电影,最新电影,电影天堂,影视帝国,人人影视
  • TA的每日心情
    难过
    3 小时前
  • 签到天数: 747 天

    [LV.9]以坛为家II

    发表于 6 天前 | 显示全部楼层
    下载收藏,这片很好看
    古哥影视论坛 www.guge09.com 高清电影,蓝光电影,最新电影,电影天堂,影视帝国,人人影视

    该用户从未签到

    发表于 6 天前 | 显示全部楼层
    谢谢楼主分享!
    古哥影视论坛 www.guge09.com 高清电影,蓝光电影,最新电影,电影天堂,影视帝国,人人影视

    该用户从未签到

    发表于 5 天前 | 显示全部楼层
    谢谢LZ分享~
    古哥影视论坛 www.guge09.com 高清电影,蓝光电影,最新电影,电影天堂,影视帝国,人人影视
    您需要登录后才可以回帖 登录 | 注册(分享大片)

    本版积分规则

    免责声明
    本站提供网上学习交流和自由讨论使用,所有资源均来自互联网公开渠道,发布和个人言论并不代表本站立场,本站不负任何责任.
    如发现有侵权行为,请与我们联系.我们将立刻从网站上删除,并向所有持版权者致最深歉意.
    已经安全运行

    QQ|小黑屋|手机版|Archiver|古哥论坛

    GMT+8, 2024-5-21 22:09 , Processed in 0.329399 second(s), 28 queries , Gzip On.

    Powered by Discuz! X3.4

    Copyright © 2001-2021, Tencent Cloud.

    快速回复 返回顶部 返回列表