古哥论坛

 找回密码
 注册(分享大片)
查看: 284|回复: 25

[1080P] [安娜].Anna.2019.1080p.BluRay.x265.10bit.DTS-SONYHD 中英字幕/5.19GB

[复制链接]

该用户从未签到

发表于 6 天前 | 显示全部楼层 |阅读模式
4K天堂

◎标  题 安娜
◎译  名 ANИA
◎片  名 Anna
◎年  代 2019
◎产  地 法国 / 美国 / 加拿大 / 俄罗斯
◎类  别 动作 / 惊悚
◎语  言 英语 / 俄语 / 法语
◎上映日期 2019-06-19(中国台湾) / 2019-06-21(美国) / 2019-07-10(法国)
◎IMDb评分 6.6/10 (86830人评价)
◎IMDb链接 https://www.imdb.com/title/tt7456310/
◎豆瓣评分 7.8/10 (180995人评价)
◎豆瓣链接 https://movie.douban.com/subject/27166976/
◎片  长 119分钟
◎导  演 吕克·贝松 Luc Besson
◎编  剧 吕克·贝松 Luc Besson
◎演  员 萨莎·露丝 Sasha Luss
      海伦·米伦 Helen Mirren
      卢克·伊万斯 Luke Evans
      基里安·墨菲 Cillian Murphy
      莱拉·阿波瓦 Lera Abova
      亚历山大·佩特罗夫 Alexander Petrov
      尼基塔·帕夫连科 Nikita Pavlenko
      安娜·克里帕 Anna Krippa
      阿列克谢·马斯洛杜多夫 Aleksey Maslodudov
      艾力克·高敦 Eric Godon
      伊凡·弗拉内克 Ivan Franek
      让·巴蒂斯特·普奇 Jean-Baptiste Puech
      阿德里安·坎恩 Adrian Can
      艾莉森·惠勒 Alison Wheeler
      安德鲁·霍华德 Andrew Howard
      詹·奥利弗·施罗德 Jan Oliver Schroeder
      谢尔盖巴切乌尔斯基 Sergey Bachurskiy
      耶斯·利奥丹 Jess Liaudin
      詹姆斯·乔因特 James Joint
      雷吉尔·库迪乌 Réginal Kudiwu
      扎克·安德里亚纳索洛 Zac Andrianasolo
      保利妮·霍劳 Pauline Hoarau
      尼可洛·森尼 Niccolò Senni
      伊戈尔·萨沃金 Igor Savochkin
      特拉维斯·克舍琴 Travis Kerschen
      埃文特·斯特朗 Avant Strangel
      克里斯多夫·泰克 Christophe Tek
      鲁伯特·韦恩-詹姆斯 Rupert Wynne-James
      大卫·科伯恩 David Coburn
      詹苏·托松 cansu tosun
      索菲亚·邓恩-沃克 Sophia Dunn-Walker
      劳伦·德·格拉夫 Lauren de Graaf
      格蕾塔·瓦丽丝 Greta Varlese
      娜丝提亚·丝特恩 Nastya Sten

◎简  介
  故事聚焦神秘女杀手安娜的成长及执行各种暗杀任务的经历,在美丽的外表下,安娜拥有聪明绝顶的头脑和强大的战斗技巧,是世界上最恐怖的刺客之一,她游走于黑白两道,只要被锁定的目标,从不失手。
##### MediaInfo ######
General
Unique ID : 232566500406449280655220214024541939914 (0xAEF6ADC08E30ACFA2860CB122C3DA8CA)
Complete name : Anna.2019.1080p.BluRay.x265.10bit.DTS-SONYHD.mkv
Duration : 1 h 58 min
Overall bit rate : 6 238 kb/s

Video
ID : 1
Format : HEVC
Format/Info : High Efficiency Video Coding
Format profile : Main 10@L4@Main
Codec ID : V_MPEGH/ISO/HEVC
Duration : 1 h 58 min
Bit rate : 4 626 kb/s
Width : 1 920 pixels
Height : 804 pixels
Display aspect ratio : 2.40:1
Frame rate mode : Constant
Frame rate : 23.976 (24000/1001) FPS
Color space : YUV
Chroma subsampling : 4:2:0
Bit depth : 10 bits
Bits/(Pixel*Frame) : 0.125
Stream size : 3.84 GiB (74%)
Writing library : x265 3.5g2b25c9ba0+45:[Windows][GCC 10.2.0][64 bit] Yuuki 10bit+8bit+12bit
Encoding settings : rc=crf / crf=16.7000 / qcomp=0.60 / qpstep=4 / stats-write=0 / stats-read=0 / no-lossless / no-cu-lossless / aq-mode=3 / aq-strength=0.90 / cbqpoffs=0 / crqpoffs=0 / ipratio=1.40 / pbratio=1.30 / psy-rd=2.00 / psy-rdoq=0.00 / deblock=0:0 / ref=6 / limit-refs=1 / no-limit-modes / bframes=8 / b-adapt=2 / bframe-bias=0 / b-pyramid / b-intra / weightp / weightb / min-keyint=24 / max-keyint=240 / rc-lookahead=24 / gop-lookahead=0 / scenecut=40 / hist-scenecut=0 / radl=0 / max-cu-size=64 / min-cu-size=8 / me=3 / subme=7 / merange=48 / rdoq-level=0 / rd=4 / rdpenalty=0 / dynamic-rd=0.00 / no-rd-refine / ----- / cutree / sao / no-rect / no-amp / no-open-gop / wpp / no-pmode / no-pme / no-psnr / no-ssim / nr-intra=0 / nr-inter=0 / no-constrained-intra / no-strong-intra-smoothing / max-tu-size=32 / tu-inter-depth=1 / tu-intra-depth=1 / limit-tu=0 / qg-size=32 / qpmax=69 / qpmin=0 / ----- / cpuid=1111039 / frame-threads=4 / numa-pools=+ / log-level=2 / input-csp=1 / input-res=1920x804 / interlace=0 / level-idc=0 / high-tier=1 / uhd-bd=0 / no-allow-non-conformance / no-repeat-headers / aud / no-hrd / info / hash=0 / no-temporal-layers / lookahead-slices=0 / no-splice / no-intra-refresh / no-ssim-rd / signhide / no-tskip / max-merge=3 / temporal-mvp / no-frame-dup / no-hme / no-analyze-src-pics / no-sao-non-deblock / selective-sao=4 / early-skip / rskip / no-fast-intra / no-tskip-fast / no-splitrd-skip / zone-count=0 / no-strict-cbr / no-rc-grain / no-const-vbv / sar=0 / overscan=0 / videoformat=5 / range=0 / colorprim=2 / transfer=2 / colormatrix=2 / chromaloc=0 / display-window=0 / cll=0,0 / min-luma=0 / max-luma=1023 / log2-max-poc-lsb=8 / vui-timing-info / vui-hrd-info / slices=1 / no-opt-qp-pps / no-opt-ref-list-length-pps / no-multi-pass-opt-rps / scenecut-bias=0.05 / hist-threshold=0.03 / no-opt-cu-delta-qp / no-aq-motion / no-hdr10 / no-hdr10-opt / no-dhdr10-opt / no-idr-recovery-sei / analysis-reuse-level=0 / analysis-save-reuse-level=0 / analysis-load-reuse-level=0 / scale-factor=0 / refine-intra=0 / refine-inter=0 / refine-mv=1 / refine-ctu-distortion=0 / no-limit-sao / ctu-info=0 / no-lowpass-dct / refine-analysis-type=0 / copy-pic=1 / max-ausize-factor=1.0 / no-dynamic-refine / no-single-sei / no-hevc-aq / no-svt / no-field / qp-adaptation-range=1.00 / scenecut-aware-qp=0conformance-window-offsets / right=0 / bottom=0 / decoder-max-rate=0 / no-vbv-live-multi-pass
Default : Yes
Forced : No

Audio
ID : 2
Format : DTS
Format/Info : Digital Theater Systems
Codec ID : A_DTS
Duration : 1 h 58 min
Bit rate mode : Constant
Bit rate : 1 510 kb/s
Channel(s) : 6 channels
Channel layout : C L R Ls Rs LFE
Sampling rate : 48.0 kHz
Frame rate : 93.750 FPS (512 SPF)
Bit depth : 24 bits
Compression mode : Lossy
Stream size : 1.25 GiB (24%)
Language : English
Default : Yes
Forced : No

Text #1
ID : 3
Format : PGS
Muxing mode : zlib
Codec ID : S_HDMV/PGS
Codec ID/Info : Picture based subtitle format used on BDs/HD-DVDs
Duration : 1 h 52 min
Bit rate : 52.8 kb/s
Frame rate : 0.578 FPS
Count of elements : 3905
Stream size : 42.5 MiB (1%)
Title : chs&eng
Language : Chinese
Default : Yes
Forced : No

Text #2
ID : 4
Format : PGS
Muxing mode : zlib
Codec ID : S_HDMV/PGS
Codec ID/Info : Picture based subtitle format used on BDs/HD-DVDs
Duration : 1 h 52 min
Bit rate : 53.3 kb/s
Frame rate : 0.578 FPS
Count of elements : 3905
Stream size : 42.9 MiB (1%)
Title : cht&eng
Language : Chinese
Default : No
Forced : No

Text #3
ID : 5
Format : PGS
Muxing mode : zlib
Codec ID : S_HDMV/PGS
Codec ID/Info : Picture based subtitle format used on BDs/HD-DVDs
Duration : 1 h 52 min
Bit rate : 34.6 kb/s
Frame rate : 0.578 FPS
Count of elements : 3905
Stream size : 27.8 MiB (1%)
Title : chs
Language : Chinese
Default : No
Forced : No

Text #4
ID : 6
Format : PGS
Muxing mode : zlib
Codec ID : S_HDMV/PGS
Codec ID/Info : Picture based subtitle format used on BDs/HD-DVDs
Duration : 1 h 52 min
Bit rate : 35.1 kb/s
Frame rate : 0.578 FPS
Count of elements : 3905
Stream size : 28.3 MiB (1%)
Title : cht
Language : Chinese
Default : No
Forced : No

Text #5
ID : 7
Format : PGS
Muxing mode : zlib
Codec ID : S_HDMV/PGS
Codec ID/Info : Picture based subtitle format used on BDs/HD-DVDs
Duration : 1 h 52 min
Bit rate : 38.4 kb/s
Frame rate : 0.440 FPS
Count of elements : 2972
Stream size : 30.9 MiB (1%)
Title : eng
Language : English
Default : No
Forced : No

Menu
00:00:00.000 : en:Chapter 01
00:06:14.290 : en:Chapter 02
00:16:42.209 : en:Chapter 03
00:21:09.184 : en:Chapter 04
00:31:16.708 : en:Chapter 05
00:35:25.831 : en:Chapter 06
00:45:57.337 : en:Chapter 07
00:53:43.261 : en:Chapter 08
01:00:52.732 : en:Chapter 09
01:08:39.907 : en:Chapter 10
01:14:24.084 : en:Chapter 11
01:24:15.133 : en:Chapter 12
01:28:36.519 : en:Chapter 13
01:36:36.582 : en:Chapter 14
01:46:36.389 : en:Chapter 15
01:51:04.783 : en:Chapter 16


部分资源为软字幕,移动端推荐播放器:MxPlayer,nPlayer,infuse ,其他播放器请自行尝试。
部分资源为软字幕,电脑端推荐播放器:PotPlayer,完美解码,KMPLAYER,其他播放器请自行尝试。
下载端推荐纯BT下载软件:qBittorrent,Bitcomet,uTorrent ,其他下载软件请自行尝试。不支持吸血迅雷。
游客,如果您要查看本帖隐藏内容请回复开通VIP会员可免回复、不扣积分下载种子附件,点击开通VIP会员
古哥影视论坛 www.guge09.com 高清电影,蓝光电影,最新电影,电影天堂,影视帝国,人人影视
  • TA的每日心情
    开心
    11 小时前
  • 签到天数: 167 天

    [LV.7]常住居民III

    发表于 6 天前 | 显示全部楼层
    挺好看的,谢谢分享
    古哥影视论坛 www.guge09.com 高清电影,蓝光电影,最新电影,电影天堂,影视帝国,人人影视

    该用户从未签到

    发表于 6 天前 | 显示全部楼层
    谍战好片,谢谢
    古哥影视论坛 www.guge09.com 高清电影,蓝光电影,最新电影,电影天堂,影视帝国,人人影视

    该用户从未签到

    发表于 6 天前 | 显示全部楼层
    谢谢楼主分享,收下了看看
    古哥影视论坛 www.guge09.com 高清电影,蓝光电影,最新电影,电影天堂,影视帝国,人人影视

    该用户从未签到

    发表于 6 天前 | 显示全部楼层
    谢谢分享,下了看看。
    古哥影视论坛 www.guge09.com 高清电影,蓝光电影,最新电影,电影天堂,影视帝国,人人影视

    该用户从未签到

    发表于 6 天前 | 显示全部楼层
    感谢楼主分享
    古哥影视论坛 www.guge09.com 高清电影,蓝光电影,最新电影,电影天堂,影视帝国,人人影视

    该用户从未签到

    发表于 6 天前 | 显示全部楼层
    谢谢楼主分享
    古哥影视论坛 www.guge09.com 高清电影,蓝光电影,最新电影,电影天堂,影视帝国,人人影视

    该用户从未签到

    发表于 6 天前 | 显示全部楼层
    谢谢楼主分享,辛苦了
    古哥影视论坛 www.guge09.com 高清电影,蓝光电影,最新电影,电影天堂,影视帝国,人人影视

    该用户从未签到

    发表于 6 天前 | 显示全部楼层

    谢谢楼主分享
    古哥影视论坛 www.guge09.com 高清电影,蓝光电影,最新电影,电影天堂,影视帝国,人人影视
  • TA的每日心情
    开心
    2024-3-20 20:35
  • 签到天数: 4 天

    [LV.2]偶尔看看I

    发表于 6 天前 | 显示全部楼层
    谢谢楼主分享
    古哥影视论坛 www.guge09.com 高清电影,蓝光电影,最新电影,电影天堂,影视帝国,人人影视

    该用户从未签到

    发表于 6 天前 | 显示全部楼层
    这个厉害了,谢谢分享
    古哥影视论坛 www.guge09.com 高清电影,蓝光电影,最新电影,电影天堂,影视帝国,人人影视
  • TA的每日心情
    开心
    2024-2-9 10:17
  • 签到天数: 7 天

    [LV.3]偶尔看看II

    发表于 6 天前 | 显示全部楼层
    感谢楼主分享
    古哥影视论坛 www.guge09.com 高清电影,蓝光电影,最新电影,电影天堂,影视帝国,人人影视

    该用户从未签到

    发表于 6 天前 | 显示全部楼层
    谢谢分享好电影
    古哥影视论坛 www.guge09.com 高清电影,蓝光电影,最新电影,电影天堂,影视帝国,人人影视

    该用户从未签到

    发表于 6 天前 | 显示全部楼层
    谢谢楼主分享!
    古哥影视论坛 www.guge09.com 高清电影,蓝光电影,最新电影,电影天堂,影视帝国,人人影视
  • TA的每日心情

    14 小时前
  • 签到天数: 723 天

    [LV.9]以坛为家II

    发表于 5 天前 | 显示全部楼层
    美女杀我,美女杀手

    古哥影视论坛 www.guge09.com 高清电影,蓝光电影,最新电影,电影天堂,影视帝国,人人影视
  • TA的每日心情

    5 天前
  • 签到天数: 67 天

    [LV.6]常住居民II

    发表于 5 天前 | 显示全部楼层
    好电影!多谢楼主发片!
    古哥影视论坛 www.guge09.com 高清电影,蓝光电影,最新电影,电影天堂,影视帝国,人人影视

    该用户从未签到

    发表于 5 天前 | 显示全部楼层
    超爽的 动作片
    古哥影视论坛 www.guge09.com 高清电影,蓝光电影,最新电影,电影天堂,影视帝国,人人影视
  • TA的每日心情
    开心
    2024-5-1 21:38
  • 签到天数: 150 天

    [LV.7]常住居民III

    发表于 4 天前 | 显示全部楼层
    好东西 感谢楼主分享
    古哥影视论坛 www.guge09.com 高清电影,蓝光电影,最新电影,电影天堂,影视帝国,人人影视

    该用户从未签到

    发表于 4 天前 | 显示全部楼层
    下载了看看
    古哥影视论坛 www.guge09.com 高清电影,蓝光电影,最新电影,电影天堂,影视帝国,人人影视
  • TA的每日心情
    慵懒
    2024-1-13 10:45
  • 签到天数: 62 天

    [LV.6]常住居民II

    发表于 4 天前 | 显示全部楼层
    感谢楼主,谢谢分享哈
    古哥影视论坛 www.guge09.com 高清电影,蓝光电影,最新电影,电影天堂,影视帝国,人人影视
    您需要登录后才可以回帖 登录 | 注册(分享大片)

    本版积分规则

    免责声明
    本站提供网上学习交流和自由讨论使用,所有资源均来自互联网公开渠道,发布和个人言论并不代表本站立场,本站不负任何责任.
    如发现有侵权行为,请与我们联系.我们将立刻从网站上删除,并向所有持版权者致最深歉意.
    已经安全运行

    QQ|小黑屋|手机版|Archiver|古哥论坛

    GMT+8, 2024-5-21 21:58 , Processed in 0.281775 second(s), 29 queries , Gzip On.

    Powered by Discuz! X3.4

    Copyright © 2001-2021, Tencent Cloud.

    快速回复 返回顶部 返回列表